즐겨찾기 | 현재접속자 (22) | 최근게시물
총 게시물 231건, 최근 24 건
   

[한글] 테이크 쉘터 Take Shelter 2011 (1080p Bluray x265 HEVC 10bit AAC 5.1 Tigole)

글쓴이 : 익명글쓴이 날짜 : 2017-06-15 (목) 20:48 조회 : 81
다운로드 : [한글] 테이크 쉘터 Take Shelter 2011 (1080p Bluray x265 HEVC 10bit AAC 5.1 Tigole) (5.0G)
170613 170614 170615 쥬비디오, 바로보기, 주비디오, torrent

Take Shelter 2011 in 1080p, encoded with x265 in HEVC and AAC 5.1 English, with English and French subtitles! 
Encoded using the time consuming 2 pass, 10 bit color at 2750 kbps, from a Blu-ray source, for the highest quality possible. 



Media Information

Code:

General 
Format : Matroska 
Format version : Version 4 / Version 2 
File size : 2.66 GiB 
Duration : 2 h 1 min 
Overall bit rate : 3 141 kb/s 
Movie name : Take Shelter 
Encoded date : UTC 2017-05-09 10:26:31 
Writing application : mkvmerge v9.6.0 (Slave To Your Mind) 64bit 
Writing library : libebml v1.3.4 + libmatroska v1.4.5 

Video 
ID : 1 
Format : HEVC 
Format/Info : High Efficiency Video Coding 
Format profile : [email protected]<script data-cfhash='f9e31' type="text/javascript">@Main 
Codec ID : V_MPEGH/ISO/HEVC 
Duration : 2 h 1 min 
Bit rate : 2 761 kb/s 
Width : 1 920 pixels 
Height : 816 pixels 
Display aspect ratio : 2.35:1 
Frame rate mode : Constant 
Frame rate : 23.976 (24000/1001) FPS 

Audio #1 
ID : 2 
Format : AAC 
Format/Info : Advanced Audio Codec 
Format profile : LC 
Codec ID : A_AAC 
Duration : 2 h 1 min 
Bit rate : 305 kb/s 
Channel(s) : 6 channels 
Channel positions : Front: L C R, Side: L R, LFE 
Sampling rate : 48.0 kHz 
Frame rate : 46.875 FPS (1024 spf) 
Compression mode : Lossy 
Delay relative to video : 20 ms 
Stream size : 264 MiB (10%) 
Language : English 
Default : Yes 
Forced : No 

Audio #2 
ID : 3 
Format : AAC 
Format/Info : Advanced Audio Codec 
Format profile : HE-AAC / LC 
Codec ID : A_AAC 
Duration : 2 h 1 min 
Bit rate : 66.2 kb/s 
Channel(s) : 2 channels 
Channel positions : Front: L R 
Sampling rate : 48.0 kHz / 24.0 kHz 
Frame rate : 23.438 FPS (1024 spf) 
Compression mode : Lossy 
Delay relative to video : 40 ms 
Stream size : 57.0 MiB (2%) 
Title : Commentary 
Language : English 
Default : No 
Forced : No 

악몽인가 현실인가, 폭풍에 맞서는 한 남자의 외로운 싸움이 시작된다!

한 여자의 남편이자 한 아이의 아빠로서 성실한 삶을 살고 있는 커티스. 하지만 어느 날부터인가 시작된 악몽은 평온했던 그의 일상을 뒤흔든다. 거대한 폭풍이 밀려오는 악몽은 현실 깊숙이 침투해 커티스를 괴롭히고, 그의 이상행동을 이해하지 못하는 아내 사만다와 동료들은 그를 외면하기에 이른다. 그럼에도 커티스는 폭풍으로부터 가족을 지켜내야 한다는 사명감으로 뒷마당에 방공호를 짓기 시작하는데…

[한글] 테이크 쉘터 Take Shelter 2011 (1080p Bluray x265 HEVC 10bit AAC 5.1 Tigole)
[ 바로감상 ] [ 다운로드 ]

   

총 게시물 231건, 최근 24 건
번호 제목 날짜 조회
231
 올겨울, 모든 연인들에게 사랑을 처방해 드립니다!타고난 바람둥이 제이미(제이크 질렌할 분)는 넘치는…
09:48 0
230
세상에는 국가처럼 강력한 힘을 가진 조직들이 있다. 그들은 전쟁을 일으킬 힘과 능력을 갖추고 있으며, …
09:48 1
229
 세계 최고의 헤비메탈 밴드 ‘메탈리카’가 전석이 매진된 스타디움에서 팬들을 위한 강렬한 라이…
09:48 1
228
  와인 판매상 알렉스 게이츠(Alex Gates: 잭 니콜슨 분)는 와인에 대해서는 탁월한 미각을 지니고 있는 …
09:48 1
227
줄거리 불순물 제로(Zero)의 도망자가 역습을 시작한다! 잘 나가는 변호사이자 단란한 한 가족의 가…
09:48 1
226
줄거리 인류의 재탄생을 위한 전쟁이 시작된다! ‘대리, 대행자’등의 사전적 의미를 가진 는 한 …
09:48 1
225
미국과 멕시코의 국경에 위치한 작은 마을 제리코는 멕시코로부터 불법적으로 들어오는 주류가 거쳐가…
09:48 1
224
백만 달러의 사랑 (1966) How To Steal A Million 평점 7.8/10 장르|나라코미디/범죄/로…
09:48 1
223
줄거리 모든 전쟁은 그로부터 시작된다! 그와 거래하는 자, 세계를 지배한다!전쟁을 판매한 신화…
09:48 1
222
01:48 4
221
01:48 5
220
06-23 11
219
06-23 11
218
줄거리 사랑, 복수, 죄의 퍼즐 드라마 내 영혼의 무게는 얼마인가? 2004년 가을, 영화 사상 가장 위대한 경…
06-23 9
217
 액션, 드라마 미국, 독일 139분 2016.10.26 재개봉, 1999.11.13 개봉 [국내] 청소년 관람불가 [해외] R 도움말 …
06-23 8
216
Stars. =>-Jeremy Irons. =>-Genevieve Bujold. =>-Heidi von Palleske. Director. =>-David Cronenberg. Info. =>-Genre : Drama : Horror : Thril…
06-23 9
215
06-23 6
214
06-23 5
213
06-23 6
212
  소피(Sophie Zawistowska: 메릴 스트립 분)의 아버지는 반유태주의가 팽배했던 폴란드에서, 폴란드의 유태인…
06-23 5
 1  2  3  4  5  6  7  8  9  10  다음  맨끝